Grabar

Ir abajo

Grabar

Mensaje  nrg1951 el Jue 1 Feb 2018 - 11:19

Buenos días.
Con fines de investigación he realizado una grabación de un archivo tidal master con varias canciones.
Pero me ha quedado un archivo sin la división en canciones y no entiendo eso de los archivos cue.
¿Alguien sabe como hacer la división.
Gracias.

nrg1951

Cantidad de envíos : 447
Localización : San Vicente del Raspeig. ALICANTE
Fecha de inscripción : 19/06/2009

Volver arriba Ir abajo

Re: Grabar

Mensaje  miluxmit el Jue 1 Feb 2018 - 21:29

Si usas mac yo uso el programa XLD para dividir flacs o ape. En windows seguro que existe pero no lo conozco. Saludos

miluxmit

Cantidad de envíos : 81
Localización : al sur
Fecha de inscripción : 10/06/2015

Volver arriba Ir abajo

Re: Grabar

Mensaje  nrg1951 el Vie 2 Feb 2018 - 19:48

miluxmit escribió:Si usas mac yo uso el programa XLD para dividir flacs o ape. En windows seguro que existe pero no lo conozco. Saludos

Hola Miluxmit
Yo tengo un pc con Windows 10
De todos modos no he planteado bien el asunto.
Yo he grabado de tidal un archivo de una sinfonía que tiene 4 movimientos y que en tidal se ven y se pueden escuchar cada uno de los 4 movimientos. Pero el archivo que yo grabo tiene los 4 movimientos "pero todos juntos" no se pueden ver cada uno por su cuenta.
Quisiera saber si en mi grabación, están los archivos separados, y para verlos hay que hacer algo que yo ignoro, o bien hay que separar mi archivo "único" en varios archivos.
Gracias.

nrg1951

Cantidad de envíos : 447
Localización : San Vicente del Raspeig. ALICANTE
Fecha de inscripción : 19/06/2009

Volver arriba Ir abajo

Re: Grabar

Mensaje  ducados123 el Sáb 3 Feb 2018 - 18:46

Para Windows Medieval cue splitter.

ducados123

Cantidad de envíos : 97
Edad : 61
Localización : Alicante
Fecha de inscripción : 27/09/2016

Volver arriba Ir abajo

r

Mensaje  nrg1951 el Dom 4 Feb 2018 - 11:53

ducados123 escribió:Para Windows Medieval cue splitter.
Creo que mi archivo grabado no tiene cue. ¿Cómo podrá averiguar esto?

nrg1951

Cantidad de envíos : 447
Localización : San Vicente del Raspeig. ALICANTE
Fecha de inscripción : 19/06/2009

Volver arriba Ir abajo

Re: Grabar

Mensaje  ducados123 el Dom 4 Feb 2018 - 12:42

Si no tiene CUE este programa creo que no puede dividir, en el cue están los datos que lo permiten.

ducados123

Cantidad de envíos : 97
Edad : 61
Localización : Alicante
Fecha de inscripción : 27/09/2016

Volver arriba Ir abajo

Grabar

Mensaje  nrg1951 el Dom 4 Feb 2018 - 13:40

ducados123 escribió:Si no tiene CUE este programa creo que no puede dividir, en el cue están los datos que lo permiten.

Exacto. El programa no encuentra el cue. Lo mas seguro es que el archivo no tenga cue.
¿Qué se puede hacer en este caso?

nrg1951

Cantidad de envíos : 447
Localización : San Vicente del Raspeig. ALICANTE
Fecha de inscripción : 19/06/2009

Volver arriba Ir abajo

Re: Grabar

Mensaje  garantamaulas el Dom 11 Feb 2018 - 1:42

Hola.
No entiendo bien qué clase de archivo es en realidad el que tienes. Yo no he usado nunca Tidal y aún menos cómo se graban. Vamos, que no sé qué extensión tiene ese archivo master de tidal.
Pero bueno, lo que sí sé es lo que son los archivos .cue. Son archivos que le indican al reproductor (Foobar) qué archivos de sonido (mp3, flac, wav) deben reproducirse (lista de reproducción tal como .m3u). E igualmente y también, cuando tennemos un solo archivo de sonido, el minuto y segundo al que debe saltar la reproducción en curso. Como se pueden establecer tantos puntos de salto como se quiera y cada uno de ellos con un título etiqueta, pues el resultado es que tenemos una lista de cortes o canciones, cada uno con su minuto y segundo en el archivo de sonido.
Después, cuando se abre el archivo .cue con el reproductor (Foobar en mi caso) aparece en su ventana la lista de cortes y canciones con los títulos que le hayamos puesto y su duración. Se podrá entonces saltar a cualquiera de las canciones directamente o avanzar o retroceder de una en una según le demos a un botón u otro, o con el ratón directamente.

Si tienes un archivo de estos de música, no tendrás más que abrir o crear un archivo .cue con el Bloc de Notas y poner los títulos y los instantes correspondientes a los cortes. Como en tu caso sólo tienes cuatro, pues no será demasiado trabajo. Los instantes en los que quieres que vayan los cortes los sacarás de donde puedas, bien de las carátulas de los discos o, en el peor de los casos, a oído. Yo lo he hecho con discos completos que bajé de Youtube con más de 15 canciones.
En fin, si tu archivo de sonido no tiene estas extensiones habituales que lee el Foobar, pues ni idea de si funcionará.
El archivo cue, debe ir con una sintáxis muy estricta; así es que, para crearlo, debes fijarte en alguno ya hecho que encuentres por ahí. Yo me he hecho una plantilla reducida simplificada todo lo que he podido. Si la has menester, no me importaría pasártela.

Un saludo.


Con archivos

garantamaulas

Cantidad de envíos : 132
Localización : Madrid
Fecha de inscripción : 06/04/2016

Volver arriba Ir abajo

Grabar

Mensaje  nrg1951 el Dom 11 Feb 2018 - 10:13

Hola Garantamaulas
He grabado un archivo "calidad master" de Tidal
Parece ser un archivo de 24 bits y 96 kilohertz que creo que es superior  a la calidad cd. (Estoy un poco "pegao" de lo digital, soy de vinilo)
Lo he grabado con dos programas vb cable y audacity y me sale un archivo de una sola pieza que ya he aprendido a fragmentar  en cuatro piezas.
Pero no hay ningún .cue por ningún lado.
Tengo medio entendido que hay programas que generan cues o plantillas y ahí te pido ayuda.
Gracias

nrg1951

Cantidad de envíos : 447
Localización : San Vicente del Raspeig. ALICANTE
Fecha de inscripción : 19/06/2009

Volver arriba Ir abajo

Re: Grabar

Mensaje  pablopi el Dom 11 Feb 2018 - 10:50

Dos alternativas:

  • Troceas con Audacity la muestra y la divides en cuatro archivos FLAC o WAV (por ejemplo). Aquí no necesitas ningún archivo CUE para nada.
  • Generas tú mismo el archivo CUE del archivo de audio sin dividir indicando en él la duración de cada pista. Puedes usar, por ejemplo, CUE Master o AudioCueSheet (hay otros). Realmente con un editor de textos vale.

De un modo u otro eres tú quien decidirá inicio y fin de cada pista, con mejor o peor fortuna. Algunos editores CUE utilizan bases de datos en línea (CDDB, FreeDB) para tratar de identificar el álbum al que pertenecen las pistas para facilitar la tarea, pero no confío en que esto sea de utilidad en tu caso.


Última edición por pablopi el Dom 11 Feb 2018 - 13:39, editado 2 veces
avatar
pablopi

Cantidad de envíos : 5536
Localización : Castellón
Fecha de inscripción : 21/06/2010

http://www.pablofelip.tk

Volver arriba Ir abajo

Re: Grabar

Mensaje  garantamaulas el Dom 11 Feb 2018 - 11:59


Se me adelantó Pablopy, que es un master magister. Así es que no sé si borrar mi mensaje. Bah, ya que lo escribí, lo dexo. Pero muy bien podeis saltarlo y escuchar voces más autorizadas.
Gracias, Pablopi, que a mí me viene también bien la info de esos programas. Ya les meteré mano... si son accesibles con lectores de pantalla y se dejan, claro. XD


Hola, Nrg.

 Sigues sin decir la extensión del archivo de sonido. Supongo que será wav o flac.
 Siento no poder ayudarte en la cuestión de los programas que generan archivos cue automáticamente. Yo todavía no me he puesto con ellos, Por ejemplo, para cortar archivos mp3 en trozos más pequeños (como has hecho tú), uso el "Mp3Diréctcut", (que es sencillísimo) y sé que tiene una opción "Insertar marcas cue automáticamente", pero como te digo, todavía no la he usado. Otros programas también lo harán, pero la cuestión es determinar el instante en el que se quiere que se haga el corte. Hay programas que también detectan los silencios para poner dicha marca, pero si se tuviera una canción con un silencio en medio de ella, ahí también lo pondría. Creo que este mp3 DirectCut también lo hace y me parece que el Foobar también. Como te decía, yo los hago a mano: oyendo, parando cuando quiero, mirando el instante y escribiéndolo en el archivo cue. Seguro que algún compañero podrá decirnos cuál es el mejor y más sencillo programa para esto.

Si tienes un archivo 24/96, la información para generar la onda eléctrica analógica de sonido será mucho más precisa y aproximada a la original de la que se obtuvo, pues el cd muestrea a 44,1 Hz y 16 bits. Es como si quieres construir un círculo rellenándolo con baldosines pequeños rectangulares. Más se parecerá al real cuanto más pequeños sean estos.
Si para la anchura caben 96.000 en 1 m, serán más pequeños que si caben 44.100, que sería el muestreo (muestras por segundo según esta analogía). Y si para la altura de los dichos baldosines dispones de 2 elevado a 24, serán mucho mucho más pequeños que si dispones de 2 a la 16 (que sería la resolución según esta analogía). Otra cosa ya sería si para el círculo de un campo de fútbol, por ejemplo, apreciarías la diferencia a un cm de altura, por ejemplo también, dependiendo de la buena vista o tacto que se tenga. Y otra cosa ya sería la habilidad o el arte del dibujante que tendría que pintar el círculo efectivo partiendo de estos baldosines (que sería el DAC). Smile

 Es normal que no haya archivo cue por ningún lado. ¿Por qué habría de haberlo? lo habrá cuando alguien, persona o programa, lo haga y te lo copies y pegues o te lo bajes si lo encuentras.

Pero si ya has troceado el archivo, quizá ya no necesites el archivo cue, según lo que quieras. Como decía en el mensaje anterior, el archivo cue puedes usarlo bien para hacer una lista de reproducción indicándole al reproductor el orden en el que quieres que se reproduzcan los trozos que has obtenido; o bien, para usar sólo el archivo gordo, indicándole al reproductor los cortes con sus instantes respectivos.

 Un saludo y perdón por el tocho este espantoso que me ha salido. XD

garantamaulas

Cantidad de envíos : 132
Localización : Madrid
Fecha de inscripción : 06/04/2016

Volver arriba Ir abajo

grabar

Mensaje  nrg1951 el Dom 11 Feb 2018 - 19:08

Hola Garantamaulas
Pues a mi si que me sirve
No te he puesto la extensión por que no te había entendido.
Lo que manejo es un archivo de tidal  que ya lo emite en 96/24 y que yo habiendo leído algo de Pablo Pi y de un hilo chileno he conseguido grabarlo.
Yo para cortarlos como son wav he usado el audaciti y creo que lo he conseguido. Mi hija dice que soy the best pero creo que se refiere a mi barriga
Efectivamente tengo los cuatro trozos pero archivo cue no
Ahora mismo no sé si me convendrá enlazar los cuatro trozos con el dichoso cue. Me gustaría ver tu plantilla a ver que es eso..
¿Qué es XD?.
Saludos y gracias.

nrg1951

Cantidad de envíos : 447
Localización : San Vicente del Raspeig. ALICANTE
Fecha de inscripción : 19/06/2009

Volver arriba Ir abajo

Re: Grabar

Mensaje  garantamaulas el Dom 11 Feb 2018 - 23:45

Hola. XD significa risa o sonrisa, porque es como una cara de lado, siendo D la boca. Lo usaban mucho los jovenzuelos en un juego de guerra (Ogame) que yo jugaba, y de ellos lo deprendí. Como los : ) .

Al grano. Para los cuatro archivos .wav, será entonces una lista de reproducción tal como la .m3u en la que simplemente le obligas al reproductor a reproducirlos en el orden que tú le pones. Ahora no tengo la plantilla por aquí, porque no la uso, Prefiero abrir, seleccionar, Enter y listo. pero la buscaré.
Te pongo en cambio la plantilla para hacer los cortes en el archivo gordo, que es más interesante y a continuación explico lo que es cada cosa. Ésta es para mp3, pero para wav creo que funciona exactamente igual.
1. Abrir un archivo con el Bloc de Notas y llamarlo Nosequé.cue
2. Copiar y pegar lo que viene a continuación
3. Hacer los cambios pertinentes.
4. Guardar y listo.
Plantilla para copiar y pegar:

REM GENRE "Pastoril Gregoriana"
REM DATE
REM Esto es un comentario
REM COMMENT "ExactAudioCopy v0.95b4"

PERFORMER ""
TITLE ""
FILE "Sol De Bossa.mp3" WAVE

TRACK 01 AUDIO
TITLE "Garota de Ipanema - Lys Gainza"
PERFORMER ""
INDEX 01 00:00:00

TRACK 02 AUDIO
TITLE ""
PERFORMER ""
INDEX 01 03:32:00

TRACK 03 AUDIO
TITLE ""
PERFORMER ""
INDEX 01 07:41:00


TRACK 04 AUDIO
TITLE ""
PERFORMER ""
INDEX 01 10:29:00



nrg1951 escribió:Hola Garantamaulas
Pues a mi si que me sirve
No te he puesto la extensión por que no te había entendido.
Lo que manejo es un archivo de tidal  que ya lo emite en 96/24 y que yo habiendo leído algo de Pablo Pi y de un hilo chileno he conseguido grabarlo.
eYo para cortarlos como son wav he usado el audaciti y creo que lo he conseguido. Mi hija dice que soy the best pero creo que se refiere a mi barriga
Efectivamente tengo los cuatro trozos pero archivo cue  no
Ahora mismo no sé si me convendrá enlazar los cuatro trozos con el dichoso cue. Me gustaría ver tu plantilla a ver que es eso..
¿Qué es XD?.
Saludos y gracias.

garantamaulas

Cantidad de envíos : 132
Localización : Madrid
Fecha de inscripción : 06/04/2016

Volver arriba Ir abajo

Re: Grabar

Mensaje  garantamaulas el Dom 11 Feb 2018 - 23:48

Sigo.

Ves que sólo he puesto hasta Track 04, porque sólo tienes cuatro cortes. Pero podrías poner tú tantos cuantos se te antojaren.
Vale. Las primeras líneas con REM sólo sirven de información del archivo (Género, artista, fecha, etc) y se pueden quitar alegremente.
Las siguientes son importantes. Entre las comillas se escribirá la información en cada caso.
Performer, el artista; Title, el título del disco. Si no se escribe nada, no pasa nada y funciona igual, EXCEPTO en la línea FILE, que es la que le indica el archivo .wav que tiene que abrir. No puede haber un error aquí o no funcionará.
El indicador WAVE que viene a continuación del nombre del archivo es importante. Para .mp3 es este WAVE, y para .wav, creo que también, aunque no lo he probado.
A continuación vienen los cortes o pistas escribiendo el título y artísta que queramos entre las comillas. Si no se escribe nada entre ellas, no pasa nada, pero las comillas hay que dejarlas ahí.
Por último, el instante en el que debe ir el corte se escribe con tres pares de números separados por :, dejando el último par 00, que son minuto:segundo:00

Si tienes estos tiempos, sólo tendrás que poner el título y dichos minutos y segundos en cada pista y ya. Si no los tienes, a ojo y probando.

Yo lo hago así, porque estaba harto de no entender nada en absoluto de lo que pasaba. O porque quería, si quería, poner el punto en algún sitio determinado por la razón que fuera. Es poner marcas como en los libros.
Ahora bien, con el mp3 DirectCut y los otros que puso Pablopi, lo hacen automáticamente.

Un saludo.

garantamaulas

Cantidad de envíos : 132
Localización : Madrid
Fecha de inscripción : 06/04/2016

Volver arriba Ir abajo

Re: Grabar

Mensaje  nrg1951 el Lun 12 Feb 2018 - 20:10

pablopi escribió:Dos alternativas:

  • Troceas con Audacity la muestra y la divides en cuatro archivos FLAC o WAV (por ejemplo). Aquí no necesitas ningún archivo CUE para nada.
  • Generas tú mismo el archivo CUE del archivo de audio sin dividir indicando en él la duración de cada pista. Puedes usar, por ejemplo, CUE Master o AudioCueSheet (hay otros). Realmente con un editor de textos vale.

De un modo u otro eres tú quien decidirá inicio y fin de cada pista, con mejor o peor fortuna. Algunos editores CUE utilizan bases de datos en línea (CDDB, FreeDB) para tratar de identificar el álbum al que pertenecen las pistas para facilitar la tarea, pero no confío en que esto sea de utilidad en tu caso.

Hola Pablopi
Lo estoy intentando pero no me sale.
Trato de generar un cue en archivo wav sin partir y no me sale. Lo hago con el cue tools, los tuyos no los he podido bajar todavía.
Trato de probar con el método de Garantamaulas y tampoco me sale.En el archivo wav de una pieza no consigo meter ningún cue

nrg1951

Cantidad de envíos : 447
Localización : San Vicente del Raspeig. ALICANTE
Fecha de inscripción : 19/06/2009

Volver arriba Ir abajo

Re: Grabar

Mensaje  nrg1951 el Lun 12 Feb 2018 - 20:22

garantamaulas escribió:Sigo.

Ves que sólo he puesto hasta Track 04, porque sólo tienes cuatro cortes. Pero podrías poner tú tantos cuantos se te antojaren.
Vale. Las primeras líneas con REM sólo sirven de información del archivo (Género, artista, fecha, etc) y se pueden quitar alegremente.
Las siguientes son importantes. Entre las comillas se escribirá la información en cada caso.
Performer, el artista; Title, el título del disco. Si no se escribe nada, no pasa nada y funciona igual, EXCEPTO en la línea FILE, que es la que le indica el archivo .wav que tiene que abrir. No puede haber un error aquí o no funcionará.
El indicador WAVE que viene a continuación del nombre del archivo es importante. Para .mp3 es este WAVE, y para .wav, creo que también, aunque no lo he probado.
A continuación vienen los cortes o pistas escribiendo el título y artísta que queramos entre las comillas. Si no se escribe nada entre ellas, no pasa nada, pero las comillas hay que dejarlas ahí.
 Por último, el instante en el que debe ir el corte se escribe con tres pares de números separados por :, dejando el último par 00, que son minuto:segundo:00

Si tienes estos tiempos, sólo tendrás que poner el título y dichos minutos y segundos en cada pista y ya. Si no los tienes, a ojo y probando.

 Yo lo hago así, porque estaba harto de no entender nada en absoluto de lo que pasaba. O porque quería, si quería, poner el punto en algún sitio determinado por la razón que fuera. Es poner marcas como en los libros.
Ahora bien, con el mp3 DirectCut y los otros que puso Pablopi, lo hacen automáticamente.

Un saludo.

Hola Garantamaulas.
Estoy intentando meter los datos con tu plantilla pero no me sale nada.
¿Tengo que ponerle cues al archivo wav que está de una pieza?

nrg1951

Cantidad de envíos : 447
Localización : San Vicente del Raspeig. ALICANTE
Fecha de inscripción : 19/06/2009

Volver arriba Ir abajo

Re: Grabar

Mensaje  garantamaulas el Mar 13 Feb 2018 - 2:15

nrg1951 escribió:
Hola Garantamaulas.
Estoy intentando meter los datos con tu plantilla pero no me sale nada.
¿Tengo que ponerle cues al archivo wav que está de una pieza?

No. Al archivo wav no hay que "ponerle" nada y, como al torito bravo, dejarlo tranquilo y no provocarlo... XD. Ja ja ja. Perdón por la bromita.
Vale. El archivo .cue va aparte. Un archivo de texto con dicha extensión y creado o editado con el Bloc de Notas. Ahí es donde hay que poner la plantilla y rellenarla con el nombre exacto del archivo wav, los títulos de las canciones y los tiempos de los cortes en sus sitios correspondientes.


Un saludo.

garantamaulas

Cantidad de envíos : 132
Localización : Madrid
Fecha de inscripción : 06/04/2016

Volver arriba Ir abajo

Re: Grabar

Mensaje  nrg1951 el Miér 14 Feb 2018 - 21:53

garantamaulas escribió:Hola. XD significa risa o sonrisa, porque es como una cara de lado, siendo D la boca. Lo usaban mucho los jovenzuelos en un juego de guerra (Ogame) que yo jugaba, y de ellos lo deprendí. Como los : ) .

Al grano. Para los cuatro archivos .wav, será entonces una lista de reproducción tal como la .m3u en la que simplemente le obligas al reproductor a reproducirlos en el orden que tú le pones. Ahora no tengo la plantilla por aquí, porque no la uso, Prefiero abrir, seleccionar, Enter y listo. pero la buscaré.
Te pongo en cambio la plantilla para hacer los cortes en el archivo gordo, que es más interesante y a continuación explico lo que es cada cosa. Ésta es para mp3, pero para wav creo que funciona exactamente igual.
1. Abrir un archivo con el Bloc de Notas y llamarlo Nosequé.cue
2. Copiar y pegar lo que viene a continuación
3. Hacer los cambios pertinentes.
4. Guardar y listo.
Plantilla para copiar y pegar:

REM GENRE "Pastoril Gregoriana"
REM DATE
REM Esto es un comentario
REM COMMENT "ExactAudioCopy v0.95b4"

PERFORMER ""
TITLE ""
FILE "Sol De Bossa.mp3" WAVE

TRACK 01 AUDIO
   TITLE "Garota de Ipanema - Lys Gainza"
   PERFORMER ""
INDEX 01 00:00:00

TRACK 02 AUDIO
   TITLE ""
   PERFORMER ""
INDEX 01 03:32:00

TRACK 03 AUDIO
   TITLE ""
   PERFORMER ""
INDEX 01 07:41:00


TRACK 04 AUDIO
   TITLE ""
   PERFORMER ""
INDEX 01 10:29:00



nrg1951 escribió:Hola Garantamaulas
Pues a mi si que me sirve
No te he puesto la extensión por que no te había entendido.
Lo que manejo es un archivo de tidal  que ya lo emite en 96/24 y que yo habiendo leído algo de Pablo Pi y de un hilo chileno he conseguido grabarlo.
eYo para cortarlos como son wav he usado el audaciti y creo que lo he conseguido. Mi hija dice que soy the best pero creo que se refiere a mi barriga
Efectivamente tengo los cuatro trozos pero archivo cue  no
Ahora mismo no sé si me convendrá enlazar los cuatro trozos con el dichoso cue. Me gustaría ver tu plantilla a ver que es eso..
¿Qué es XD?.
Saludos y gracias.
Bueno.
Pues con lo que dice arriba y un poco de AYUDA lo he conseguido.
Ahora veré si lo consigo con el cue splitter ese

nrg1951

Cantidad de envíos : 447
Localización : San Vicente del Raspeig. ALICANTE
Fecha de inscripción : 19/06/2009

Volver arriba Ir abajo

Re: Grabar

Mensaje  Contenido patrocinado


Contenido patrocinado


Volver arriba Ir abajo

Volver arriba


 
Permisos de este foro:
No puedes responder a temas en este foro.