Problemas con Foobar

Ver el tema anterior Ver el tema siguiente Ir abajo

Problemas con Foobar

Mensaje  Ant 57 el Sáb 10 Ene 2015 - 12:24

Hola a todos
Me he descargado el foobar 2000 y  no me abre ningún archivo cue. Hay que bajarse alguna otra cosa para que los lea o hay que configura algo dentro del programa?

otra pregunta no existe en español?. Porque para los ignorantes, como yo, de la lengua de "Chaquespeare" es un martirio cada cartelito que sale, tener que preguntarle al niño, que aprovecha para mirarte con cara de "tas obsoleto chaval"

Un saludo

Ant 57
Principiante
Principiante

Cantidad de envíos : 148
Localización : Madrid
Fecha de inscripción : 09/07/2013

Volver arriba Ir abajo

Re: Problemas con Foobar

Mensaje  Ant 57 el Sáb 10 Ene 2015 - 12:44

Por lo que estoy viendo son los archivos APE los que no abre. Los que tengo en formato FLAC, no los abre si pincho el archivo CUE, pero si pinchando directamente sobre el archivo FLAC, pero los APE ni en uno ni en otro.

Ant 57
Principiante
Principiante

Cantidad de envíos : 148
Localización : Madrid
Fecha de inscripción : 09/07/2013

Volver arriba Ir abajo

Re: Problemas con Foobar

Mensaje  Capitán América el Sáb 10 Ene 2015 - 12:48

Hola.

Tienes que editar dicho fichero CUE usando el bloc de notas, por ejemplo. Lo abres y mira que COINCIDA, en una de las primeras líneas (donde al final pone WAVE) el nombre que aparece entre comillas con el fichero de MUSICA, INCLUSO la extensión (FLAC; APE). Modifica la extensión, seguramente sea eso. Una vez hecho, guardas y abres de nuevo. Seguro que se arregla.

A la segunda pregunta la respuesta es NO. No existe versión en español, que yo sepa. Tendrás que seguir usando al niño y tomar apuntes  Very Happy , aunque en cuanto lo hayas toqueteado un poco lo dejas tal cual y a correr.

Espero haber sido de ayuda.

Un saludo.

Capitán América
Master
Master

Cantidad de envíos : 2115
Fecha de inscripción : 16/12/2008

Volver arriba Ir abajo

Re: Problemas con Foobar

Mensaje  Ant 57 el Sáb 10 Ene 2015 - 13:12

Te agradezco la ayuda, pero la verdad no me aclaro. El caso es que el Jriver lo abre sin problemas.
He editado con el broc de notas, pero no se si es porque es una descarga de una pagina rusa, que todos sabemos cual, y eso esta poco menos que en cirílico o es un lenguaje informático. en cualquiera de los casos  Shocked
No se, ahí lo dejo por si entendeis algo :


Exact Audio Copy V0.99 prebeta 4 from 23. January 2008

Îò÷¸ò EAC îá èçâëå÷åíèè, âûïîëíåííîì 12. ìàðòà 2009, 16:18

Dire Straits / Communique

Äèñêîâîä: HL-DT-STDVDRAM GSA-H62N   Adapter: 4  ID: 0

Ðåæèì ÷òåíèÿ                 : Äîñòîâåðíîñòü
Èñïîëüçîâàíèå òî÷íîãî ïîòîêà : Äà
Îòêëþ÷åíèå êýøà àóäèî        : Äà
Èñïîëüçîâàíèå óêàçàòåëåé C2  : Íåò

Êîððåêöèÿ ñìåùåíèÿ ïðè ÷òåíèè                     : 667
Ñïîñîáíîñòü ÷èòàòü îáëàñòè Lead-in è Lead-out     : Íåò
Çàïîëíåíèå ïðîïóùåííûõ ñýìïëîâ òèøèíîé            : Äà
Óäàëåíèå áëîêîâ ñ òèøèíîé â íà÷àëå è êîíöå        : Íåò
Ïðè âû÷èñëåíèÿõ CRC èñïîëüçîâàëèñü íóëåâûå ñýìïëû : Äà
Èíòåðôåéñ                                         : Âñòðîåííûé Win32-èíòåðôåéñ äëÿ Win NT/2000

Âûõîäíîé ôîðìàò : Âíóòðåííèå WAV-îïåðàöèè
Ôîðìàò ñýìïëîâ  : 44.100 Ãö; 16 áèò; ñòåðåî


TOC èçâëå÷¸ííîãî CD

    Òðåê |   Ñòàðò  | Äëèòåëüíîñòü | Íà÷àëüíûé ñåêòîð | Êîíå÷íûé ñåêòîð
   ---------------------------------------------------------------------
      1  |  0:00.00 |    5:25.05   |           0      |      24379      
      2  |  5:25.05 |    4:14.15   |       24380      |      43444      
      3  |  9:39.20 |    3:49.48   |       43445      |      60667      
      4  | 13:28.68 |    5:49.52   |       60668      |      86894      
      5  | 19:18.45 |    3:45.38   |       86895      |     103807      
      6  | 23:04.08 |    4:36.47   |      103808      |     124554      
      7  | 27:40.55 |    4:29.58   |      124555      |     144787      
      8  | 32:10.38 |    4:42.60   |      144788      |     165997      
      9  | 36:53.23 |    5:50.65   |      165998      |     192312      


Õàðàêòåðèñòèêè äèàïàçîíà èçâëå÷åíèÿ è ñîîáùåíèÿ îá îøèáêàõ

Âûáðàííûé äèàïàçîí

    Èìÿ ôàéëà F:\1979_Dire Straits - Communique\Dire Straits - Communique.wav

    Ïèêîâûé óðîâåíü 98.8 %
    Êà÷åñòâî äèàïàçîíà 100.0 %
    CRC êîïèè C383576B
    Êîïèðîâàíèå... OK

PD: Lo de Dire Straits tambien lo entiendo yo Very Happy

Ant 57
Principiante
Principiante

Cantidad de envíos : 148
Localización : Madrid
Fecha de inscripción : 09/07/2013

Volver arriba Ir abajo

Re: Problemas con Foobar

Mensaje  Capitán América el Sáb 10 Ene 2015 - 13:23

Yo entiendo lo mismo que tú, o sea nada.

Sinceramente, si Jriver te lo abre bien, yo no me calentaría la cabeza pues, entre f2k y Jriver no he encontrado la más mínima diferencia audible.

La otra opción que tienes es crearte tu propio fichero cue. En la red existen varios tutoriales e incluso uno que lo hace on line, pero del cual no recuerdo ahora mismo el nombre.

Uno de ellos es este, pero hay más (lo siento pero está en inglés):

http://sourceforge.net/projects/audiocuesheet/

Este otro al parecer, en español:

http://easy-cue-editor.malavida.com/

Un saludo.

Capitán América
Master
Master

Cantidad de envíos : 2115
Fecha de inscripción : 16/12/2008

Volver arriba Ir abajo

Re: Problemas con Foobar

Mensaje  Ant 57 el Sáb 10 Ene 2015 - 14:04

El caso es que foobar es gratis y lo principal, al probarlo, el sonido me ha gustado mas que el Jriver. Pero ahora jugando con los formatos de salida del Jriver, no noto diferencias apreciables o incluso en algunos, si no igual, casi a favor del Jriver.

Aún lo tengo en periodo de prueba y todavía no se como funciona bien todo, pero me gusta bastante. Así que, como bien dices, no merece la pena complicarse y menos por el precio, que considero mas que razonable para lo que ofrece.    

Gracias por tu interés Capitan.
Un saludo

Ant 57
Principiante
Principiante

Cantidad de envíos : 148
Localización : Madrid
Fecha de inscripción : 09/07/2013

Volver arriba Ir abajo

Re: Problemas con Foobar

Mensaje  Franciscojavier el Sáb 10 Ene 2015 - 14:11

Hola, con el icono del cue seleccionado aprietas el botón derecho, en las propiedades seleccionas que el archivo se abra con foobar preterminado.
Saludos,




Franciscojavier
Avanzad@
Avanzad@

Cantidad de envíos : 851
Localización : Almería
Fecha de inscripción : 18/06/2012

Volver arriba Ir abajo

Re: Problemas con Foobar

Mensaje  Jaime2010 el Sáb 10 Ene 2015 - 14:20

Hola

Foobar no lee APE por defecto; hay que instalar el componente Monkey Decoder http://www.foobar2000.org/components/view/foo_input_monkey

Jaime2010
Grand Master
Grand Master

Cantidad de envíos : 3935
Localización : Santiago de Chile
Fecha de inscripción : 31/05/2010

Volver arriba Ir abajo

Re: Problemas con Foobar

Mensaje  Jaime2010 el Sáb 10 Ene 2015 - 16:34

Ant 57 escribió:Te agradezco la ayuda, pero la verdad no me aclaro. El caso es que el Jriver lo abre sin problemas.
He editado con el broc de notas, pero no se si es porque es una descarga de una pagina rusa, que todos sabemos cual, y eso esta poco menos que en cirílico o es un lenguaje informático. en cualquiera de los casos  Shocked
No se, ahí lo dejo por si entendeis algo :


Exact Audio Copy V0.99 prebeta 4 from 23. January 2008

Îò÷¸ò EAC îá èçâëå÷åíèè, âûïîëíåííîì 12. ìàðòà 2009, 16:18

Dire Straits / Communique

Äèñêîâîä: HL-DT-STDVDRAM GSA-H62N   Adapter: 4  ID: 0

Ðåæèì ÷òåíèÿ                 : Äîñòîâåðíîñòü
Èñïîëüçîâàíèå òî÷íîãî ïîòîêà : Äà
Îòêëþ÷åíèå êýøà àóäèî        : Äà
Èñïîëüçîâàíèå óêàçàòåëåé C2  : Íåò

Êîððåêöèÿ ñìåùåíèÿ ïðè ÷òåíèè                     : 667
Ñïîñîáíîñòü ÷èòàòü îáëàñòè Lead-in è Lead-out     : Íåò
Çàïîëíåíèå ïðîïóùåííûõ ñýìïëîâ òèøèíîé            : Äà
Óäàëåíèå áëîêîâ ñ òèøèíîé â íà÷àëå è êîíöå        : Íåò
Ïðè âû÷èñëåíèÿõ CRC èñïîëüçîâàëèñü íóëåâûå ñýìïëû : Äà
Èíòåðôåéñ                                         : Âñòðîåííûé Win32-èíòåðôåéñ äëÿ Win NT/2000

Âûõîäíîé ôîðìàò : Âíóòðåííèå WAV-îïåðàöèè
Ôîðìàò ñýìïëîâ  : 44.100 Ãö; 16 áèò; ñòåðåî


TOC èçâëå÷¸ííîãî CD

    Òðåê |   Ñòàðò  | Äëèòåëüíîñòü | Íà÷àëüíûé ñåêòîð | Êîíå÷íûé ñåêòîð
   ---------------------------------------------------------------------
      1  |  0:00.00 |    5:25.05   |           0      |      24379      
      2  |  5:25.05 |    4:14.15   |       24380      |      43444      
      3  |  9:39.20 |    3:49.48   |       43445      |      60667      
      4  | 13:28.68 |    5:49.52   |       60668      |      86894      
      5  | 19:18.45 |    3:45.38   |       86895      |     103807      
      6  | 23:04.08 |    4:36.47   |      103808      |     124554      
      7  | 27:40.55 |    4:29.58   |      124555      |     144787      
      8  | 32:10.38 |    4:42.60   |      144788      |     165997      
      9  | 36:53.23 |    5:50.65   |      165998      |     192312      


Õàðàêòåðèñòèêè äèàïàçîíà èçâëå÷åíèÿ è ñîîáùåíèÿ îá îøèáêàõ

Âûáðàííûé äèàïàçîí

    Èìÿ ôàéëà F:\1979_Dire Straits - Communique\Dire Straits - Communique.wav

    Ïèêîâûé óðîâåíü 98.8 %
    Êà÷åñòâî äèàïàçîíà 100.0 %
    CRC êîïèè C383576B
    Êîïèðîâàíèå... OK

PD: Lo de Dire Straits tambien lo entiendo yo Very Happy

Abre el archivo con un programa que te lea unicode como Notepad+, debieras después grabarlo como texto.

O con un word, lo abres y copias y pegas en un notepad. Lo salvas.

Prueba.

Jaime2010
Grand Master
Grand Master

Cantidad de envíos : 3935
Localización : Santiago de Chile
Fecha de inscripción : 31/05/2010

Volver arriba Ir abajo

Re: Problemas con Foobar

Mensaje  hifiliberator el Sáb 10 Ene 2015 - 16:58

Ant 57 escribió:Te agradezco la ayuda, pero la verdad no me aclaro. El caso es que el Jriver lo abre sin problemas.
He editado con el broc de notas, pero no se si es porque es una descarga de una pagina rusa, que todos sabemos cual, y eso esta poco menos que en cirílico o es un lenguaje informático. en cualquiera de los casos  Shocked
No se, ahí lo dejo por si entendeis algo :


Exact Audio Copy V0.99 prebeta 4 from 23. January 2008

Îò÷¸ò EAC îá èçâëå÷åíèè, âûïîëíåííîì 12. ìàðòà 2009, 16:18

Dire Straits / Communique

Äèñêîâîä: HL-DT-STDVDRAM GSA-H62N   Adapter: 4  ID: 0

Ðåæèì ÷òåíèÿ                 : Äîñòîâåðíîñòü
Èñïîëüçîâàíèå òî÷íîãî ïîòîêà : Äà
Îòêëþ÷åíèå êýøà àóäèî        : Äà
Èñïîëüçîâàíèå óêàçàòåëåé C2  : Íåò

Êîððåêöèÿ ñìåùåíèÿ ïðè ÷òåíèè                     : 667
Ñïîñîáíîñòü ÷èòàòü îáëàñòè Lead-in è Lead-out     : Íåò
Çàïîëíåíèå ïðîïóùåííûõ ñýìïëîâ òèøèíîé            : Äà
Óäàëåíèå áëîêîâ ñ òèøèíîé â íà÷àëå è êîíöå        : Íåò
Ïðè âû÷èñëåíèÿõ CRC èñïîëüçîâàëèñü íóëåâûå ñýìïëû : Äà
Èíòåðôåéñ                                         : Âñòðîåííûé Win32-èíòåðôåéñ äëÿ Win NT/2000

Âûõîäíîé ôîðìàò : Âíóòðåííèå WAV-îïåðàöèè
Ôîðìàò ñýìïëîâ  : 44.100 Ãö; 16 áèò; ñòåðåî


TOC èçâëå÷¸ííîãî CD

    Òðåê |   Ñòàðò  | Äëèòåëüíîñòü | Íà÷àëüíûé ñåêòîð | Êîíå÷íûé ñåêòîð
   ---------------------------------------------------------------------
      1  |  0:00.00 |    5:25.05   |           0      |      24379      
      2  |  5:25.05 |    4:14.15   |       24380      |      43444      
      3  |  9:39.20 |    3:49.48   |       43445      |      60667      
      4  | 13:28.68 |    5:49.52   |       60668      |      86894      
      5  | 19:18.45 |    3:45.38   |       86895      |     103807      
      6  | 23:04.08 |    4:36.47   |      103808      |     124554      
      7  | 27:40.55 |    4:29.58   |      124555      |     144787      
      8  | 32:10.38 |    4:42.60   |      144788      |     165997      
      9  | 36:53.23 |    5:50.65   |      165998      |     192312      


Õàðàêòåðèñòèêè äèàïàçîíà èçâëå÷åíèÿ è ñîîáùåíèÿ îá îøèáêàõ

Âûáðàííûé äèàïàçîí

    Èìÿ ôàéëà F:\1979_Dire Straits - Communique\Dire Straits - Communique.wav

    Ïèêîâûé óðîâåíü 98.8 %
    Êà÷åñòâî äèàïàçîíà 100.0 %
    CRC êîïèè C383576B
    Êîïèðîâàíèå... OK

PD: Lo de Dire Straits tambien lo entiendo yo Very Happy

Esto que pones, por la estructura es un .log

Yo lo que hago es embeber o incrustar el cue en el fichero de audio con la utilidad que tiene Foobar. Botón derecho sobre el Flac, APE, ... , escojes --utilities-Edit cuesheet--.

De todas maneras, Foobar excluye por defecto los archivos cue. Lo puedes cambiar en --preferencias-media library--. Hay un desplegable en el que se indican las exclusiones. Supongo que con dejarlo en blanco es suficiente.

Saludos

hifiliberator
Master
Master

Cantidad de envíos : 2358
Localización : Madrid
Fecha de inscripción : 06/08/2009

Volver arriba Ir abajo

Re: Problemas con Foobar

Mensaje  Ant 57 el Sáb 10 Ene 2015 - 22:04

Bueno pues ha sido tan fácil como descargar el archivo indicado por Jaime y "eureka" se oye todo perfectamente OK .
Muchas gracias Jaime por tu ayuda e igualmente a los demás por sus aportaciones e interés.

Ahora que todo marcha, voy a investigar un poco este reproductor, que por lo visto no es tan simple como parece a primera vista y en cuanto a sonido no tiene nada que envidiar al Jriver. Siempre habrá tiempo para pillar este último si no me hago con el foobar.

De nuevo gracias a todos y un saludo.

Ant 57
Principiante
Principiante

Cantidad de envíos : 148
Localización : Madrid
Fecha de inscripción : 09/07/2013

Volver arriba Ir abajo

Re: Problemas con Foobar

Mensaje  vicente el Vie 23 Ene 2015 - 13:04

Aunque foobar reproduzca los CUE, a mí me gusta tener los ficheros con cada canción separada y mejor en FLAC (que así por ejemplo lo puede leer el Oppo).

Con los ficheros CUE de calidad CD no tengo mayores problemas porque tengo varios programas que lo hacen (creo recordar ahora que lo hago con el medieval CUE splitter), pero en el moemnto en que llevan música HD no hay manera.

¿Conocéis algún programa que pase los CUE de alta definición a ficheros independientes en FLAC?

Gracias

vicente
Principiante
Principiante

Cantidad de envíos : 225
Localización : Zaragoza
Fecha de inscripción : 22/02/2011

Volver arriba Ir abajo

Re: Problemas con Foobar

Mensaje  ferac66 el Vie 23 Ene 2015 - 13:58

Ant 57 escribió:Bueno pues ha sido tan fácil como descargar el archivo indicado por Jaime y "eureka" se oye todo perfectamente OK .
Muchas gracias Jaime por tu ayuda e igualmente a los demás por sus aportaciones e interés.

Ahora que todo marcha, voy a investigar un poco este reproductor, que por lo visto no es tan simple como parece a primera vista y en cuanto a sonido no tiene nada que envidiar al Jriver. Siempre habrá tiempo para pillar este último si no me hago con el foobar.

De nuevo gracias a todos y un saludo.

No te hagas cruces con la calidad de los reproductores. Si son "bit perfect", todos suenan igual.
Compré el Jriver para probar y la verdad es que se me hace un tanto engorroso, siempre acabo volviendo al foobar. En la simplicidad está su virtud.

Salud.

ferac66
Principiante
Principiante

Cantidad de envíos : 465
Localización : Valencia
Fecha de inscripción : 15/02/2011

Volver arriba Ir abajo

Re: Problemas con Foobar

Mensaje  crv74 el Vie 23 Ene 2015 - 18:34

Lo de reproducir APE es porque como han dicho le falta esa extensión al Foobar2000 y se debe descargar a parte.

Lo de reproducir CUE es como han dicho de poner que lo abra por defecto, como puede pasar con otro tipo de ficheros que tengan otro programa predeterminado, Y se soluciona como te han dicho -o- haciendo click con el botón derecho y seleccionando "Abrir con..." y de ahí el programa  que desees.

Solo un apunte: un archivo CUE no és un fichero de "datos-musical", es simplemente un archivo de texto con la lista en orden de las canciones, y se suele usar si el CD ripeado en cuestión no tiene silencios (o por algun otro motivo). Lo puedes comprobar si lo abres simplemente con el bloc de notas. Ese cue apunta a los .flac .mp3 .ape o .loquesea que tenga la musica.

Por cierto, si no lo has probado aun, descarga el modulo de salida wasapi para foobar, cambia (a mejor) la reproducción de los ficheros bastante a mi parecer (aconsejado por un buen melómano Smile

Saludos

crv74
Novat@
Novat@

Cantidad de envíos : 27
Edad : 42
Localización : Barcelona
Fecha de inscripción : 11/01/2015

Volver arriba Ir abajo

Re: Problemas con Foobar

Mensaje  Jaime2010 el Vie 23 Ene 2015 - 19:47

vicente escribió:Aunque foobar reproduzca los CUE, a mí me gusta tener los ficheros con cada canción separada y mejor en FLAC (que así por ejemplo lo puede leer el Oppo).

Con los ficheros CUE de calidad CD no tengo mayores problemas porque tengo varios programas que lo hacen (creo recordar ahora que lo hago con el medieval CUE splitter), pero en el moemnto en que llevan música HD no hay manera.

¿Conocéis algún programa que pase los CUE  de alta definición a ficheros independientes en FLAC?

Gracias

Foobar es excelente para eso también, seleccionas la lista desde la vista de reproducción click derecho y "Convert...", a flac o lo que te apetezca.

Jaime2010
Grand Master
Grand Master

Cantidad de envíos : 3935
Localización : Santiago de Chile
Fecha de inscripción : 31/05/2010

Volver arriba Ir abajo

Re: Problemas con Foobar

Mensaje  Contenido patrocinado Hoy a las 13:49


Contenido patrocinado


Volver arriba Ir abajo

Ver el tema anterior Ver el tema siguiente Volver arriba


 
Permisos de este foro:
No puedes responder a temas en este foro.