¿Qué edición de Kind of Blue os parece que tiene la mejor calidad de sonido?

Ver el tema anterior Ver el tema siguiente Ir abajo

¿Qué edición de Kind of Blue os parece que tiene la mejor calidad de sonido?

Mensaje  DeBilbao el Jue 4 Sep 2014 - 12:46

El Kind of Blue de Miles Davis es uno de esos álbumes que considero de escucha obligada periódicamente y ahora que tengo el equipo bastante afinado, tengo ganas de escucharlo a fondo de nuevo y dedicarle una entrada en JazzBai.

Tengo varias ediciones de este maravilloso trabajo y de entre ellas la que más me gusta cómo suena es la de edición de Sony Music Japan con número de catálogo SICP 1206, una remasterización del año 2006 en formato DSD que se utilizó para crear la versión en SACD y en formato redbook para este CD, que se editó en formato Mini-LP, con su obi correspondiente.

Lo tengo comprimido en formato FLAC y he comprobado que el rango dinámico es exactamente el mismo que está registrado en la base de datos de http://dr.loudness-war.info/album/view/49019 Si tenéis curiosidad, podéis consultar todas las ediciones que tienen recopiladas con esta búsqueda http://dr.loudness-war.info/album/list?artist=miles+davis&album=kind+of+blue pero están lejos de las 84 ediciones que han recopilado en http://www.kind-of-blue.de/seiten/kob.htm

Esta es la captura de pantalla de foobar2000 reproduciéndolo y con el resultado de la calculadora de rango dinámico.


Y este es el log detallado del análisis.

foobar2000 1.3.3 / Dynamic Range Meter 1.1.1
log date: 2014-09-04 13:17:13

--------------------------------------------------------------------------------
Analyzed: Miles Davis / Kind Of Blue {1959, DSD Japan Mini LP Edition}
--------------------------------------------------------------------------------

DR Peak RMS Duration Track
--------------------------------------------------------------------------------
DR14 0.00 dB -18.49 dB 9:25 01-So What
DR14 0.00 dB -17.75 dB 9:47 02-Freddie Freeloader
DR14 -1.28 dB -23.73 dB 5:38 03-Blue In Green
DR15 0.00 dB -19.59 dB 11:36 04-All Blues
DR15 -0.27 dB -22.23 dB 9:24 05-Flamenco Sketches
--------------------------------------------------------------------------------

Number of tracks: 5
Official DR value: DR14

Samplerate: 44100 Hz
Channels: 2
Bits per sample: 16
Bitrate: 712 kbps
Codec: FLAC
================================================================================


¿Cuál es vuestra versión preferida?

Smile Smile Smile

DeBilbao
Avanzad@
Avanzad@

Cantidad de envíos : 573
Localización : Bilbao
Fecha de inscripción : 16/09/2013

Volver arriba Ir abajo

Re: ¿Qué edición de Kind of Blue os parece que tiene la mejor calidad de sonido?

Mensaje  parmáximo el Sáb 4 Oct 2014 - 21:19

Yo tengo dos versiones en CD ambas. Una que dice que es la grabación original, del sello "hallmark", y otra remasterizada del sello "masterjazz records". Personalmente prefiero la original. Me parece todo más natural, y consigue más sensación de realismo.

parmáximo
Master
Master

Cantidad de envíos : 1461
Localización : Madrid
Fecha de inscripción : 10/11/2010

Volver arriba Ir abajo

Ver el tema anterior Ver el tema siguiente Volver arriba


 
Permisos de este foro:
No puedes responder a temas en este foro.